LimeTorrent

Login   |   Register   |   Home
Loading...
Browse Torrents
| Search Cloud | | | FAQ  
» » Highway (2014) Hindi 720p WEB-DL x264 AC3 2 0 ESub-Sun George (Requested)

Download Highway (2014) Hindi 720p WEB-DL x264 AC3 2 0 ESub-Sun George (Requested) limetorrent


Download torrent: Download Magnet Highway (2014) Hindi 720p WEB-DL x264 AC3 2 0 ESub-Sun George (Requested)
Info hash C9E1C88B1B3851BC876661354BA4588A70BFE6C7
Torrent ID13998345
Comments: Sort Read Comments
Category: Movies
Health:
 Seeders: 6 |  Leechers: 3 |  Completed: 57
Torrent language: Hindi Hindi
Total Size: 1.5 GB
Uploader: Sungeorge Trusted Uploader Site Friend Superman Sun
Torrent added: 06-02-2019, 11:30:05
Views: 89


Extratorrent Download Torrent prostylex : Highway (2014) Hindi 720p WEB-DL …
happymattress.net/torrents-details.php?id=107703
Download Bollywood Torrents | 1337x
http://1337x.unblocked.llc/sub/73/0
Browse Torrents
http://hon3yhd.net/torrents.php?cat=57
TGx:Browse Torrents - torrentgalaxy.org
http://torrentgalaxy.org/torrents.php?parent_cat=Movies&sort=id&...
Browse Torrents - hon3yhd.net
http://hon3yhd.net/torrents.php?cat=57&page=1
Download Bollywood Torrents | 1337x
http://1337x1.unblocked.is/sub/73/4
Download Bollywood Torrents | 1337x
http://1337x.unblocker.win/sub/73/6
TGx:Browse Torrents - torrentgalaxy.org
http://torrentgalaxy.org/torrents.php?cat=46
Sorting Bollywood Torrents | 1337x
http://1337x.to/sort-sub/73/time/desc/7
Trending Movies Torrents | 1337x
http://1337x.unblocked.llc/trending/d/moviespretty



Highway (2014) Hindi 720p WEB-DL x264 AC3 2.0 ESub-Sun George (Requested)






http://www.imdb.com/title/tt2980794/













===================================================================


Source : Hon3yhd (Thanks)


General
Format : Matroska
Format version : Version 4 / Version 2
File size : 1.50 GiB
Duration : 2 h 7 min
Overall bit rate : 1 688 kb/s
Movie name : Highway (2014) Hindi 720p WEB-DL x264 AC3 2.0 ESub-Sun George (Requested)


===================================================================


Video
ID : 1
Format : AVC
Format/Info : Advanced Video Codec
Format profile : [email protected]
Format settings : CABAC / 5 Ref Frames
Format settings, CABAC : Yes
Format settings, ReFrames : 5 frames
Codec ID : V_MPEG4/ISO/AVC
Duration : 2 h 7 min
Bit rate : 1 500 kb/s
Width : 1 280 pixels
Height : 720 pixels
Display aspect ratio : 16:9
Frame rate mode : Constant
Frame rate : 25.000 FPS
Color space : YUV
Chroma subsampling : 4:2:0
Bit depth : 8 bits
Scan type : Progressive
Bits/(Pixel*Frame) : 0.065
Stream size : 1.33 GiB (89%)
Title : Sun George


===================================================================


Audio
ID : 2
Format : AC-3
Format/Info : Audio Coding 3
Commercial name : Dolby Digital
Codec ID : A_AC3
Duration : 2 h 7 min
Bit rate mode : Constant
Bit rate : 192 kb/s
Channel(s) : 2 channels
Channel layout : L R
Sampling rate : 48.0 kHz
Frame rate : 31.250 FPS (1536 SPF)
Bit depth : 16 bits
Compression mode : Lossy
Stream size : 175 MiB (11%)
Title : Sun George
Language : Hindi
Service kind : Complete Main
Default : Yes
Forced : No














 

Related Torrents
Browse Movies Torrents Related Torrents added recently in our database RSS  
Added  Size  Sort S  Sort L  Sort Health
Download Magnet English  Dragon_Ball_Super_Broly_2018_1080p_Eng_Sub_AMZN_WEB-DL_AAC5____ in Movies, by Rapta 5 minutes 2.3 GB 38967 95138
Download Magnet English  WWE_Network_Specials_The_Mark_Henry_Story_720p_WEB_h264-HEEL___ in TV, by EZZT 5 minutes 1.8 GB 46446 14138
Download Magnet English  Clara_(2018)_[WEBRip]_[1080p]_[YTS]_[YIFY] in Movies, by YTSAGx 5 minutes 1.7 GB 58939 60782
Download Magnet English  True_Detective_S03E07_480p_x264-mSD_[eztv] in TV, by EZTVag 10 minutes 163.3 MB 73506 55473
Download Magnet English  Crashing_US_S03E05_480p_x264-mSD_[eztv] in TV, by EZTVag 10 minutes 87.3 MB 29554 90115
Download Magnet English  WWE_Network_Specials_The_Mark_Henry_Story_WEB_h264-HEEL_[TJE___ in TV, by EZZT 10 minutes 730.4 MB 86881 51554
Download Magnet English  Crashing_US_S03E05_720p_WEB_H264-METCON[TGx] in TV, by mazemaze16 10 minutes 1.2 GB 510 92556
Download Magnet English  Berlin_Station_S03E06_WEB_h264-TBS[TGx] in TV, by mazemaze16 10 minutes 493.4 MB 23932 28681
Download Magnet English  Supergirl_S04E12_1080p_HDTV_x264-LucidTV[TGx] in TV, by mazemaze16 15 minutes 2.8 GB 13754 20688
Download Magnet English  Crashing_US_S03E05_720p_WEB_H264-METCON_[eztv] in TV, by EZTVag 15 minutes 1.1 GB 491 41446




Recent Searches

Home - Browse Torrents - Upload Torrent - Recent Torrents - Login - Register - FAQ
BitCoin:coming soon
Can't load LimeTorrents
2006-2018 Limetorrents