LimeTorrent

Login   |   Register   |   Home
Loading...
Browse Torrents
| Search Cloud | | | FAQ  
» » The Hive 2008 x264 720p Esub HD Dual Audio English Hindi GOPISAHI

Download The Hive 2008 x264 720p Esub HD Dual Audio English Hindi GOPISAHI limetorrent


Download torrent: Download Magnet The Hive 2008 x264 720p Esub HD Dual Audio English Hindi GOPISAHI
Info hash F3806B5FF5028C11394156B9CF4662D4AE925CE4
Torrent ID13998198
Comments: Sort Read Comments
Category: Movies
Health:
 Seeders: 4 |  Leechers: 1 |  Completed: 40
Torrent language: English English
Total Size: 514.5 MB
Uploader: PENDUDESI Trusted Uploader Site Friend Superman Sun
Torrent added: 06-02-2019, 07:10:05
Views: 59


Extratorrent Download Torrent



http://www.gopisahi.pw/

Format : Matroska
Format version : Version 4 / Version 2
File size : 514 MiB
Duration : 1 h 30 min
Overall bit rate : 794 kb/s
Movie name : The Hive 2008 GOPISAHI

Video
Format : AVC
Codec ID : V_MPEG4/ISO/AVC
Duration : 1 h 30 min
Bit rate : 599 kb/s
Width : 1 280 pixels
Height : 720 pixels
Display aspect ratio : 16:9
Frame rate mode : Constant
Frame rate : 23.976 (24000/1001) FPS
Color space : YUV
Chroma subsampling : 4:2:0
Bit depth : 8 bits
Scan type : Progressive
Bits/(Pixel*Frame) : 0.027
Stream size : 388 MiB (75%)
Title : GOPISAHI
Writing library : x264 core 157 r2935 545de2f

Audio #1
Format : AAC
Duration : 1 h 30 min
Bit rate : 96.0 kb/s
Channel(s) : 2 channels
Channel positions : Front: L R
Sampling rate : 48.0 kHz
Frame rate : 46.875 FPS (1024 SPF)
Compression mode : Lossy
Delay relative to video : -21 ms
Stream size : 62.5 MiB (12%)
Title : GOPISAHI
Language : Hindi
Default : Yes

Audio #2
Format : AAC
Format/Info : Advanced Audio Codec
Duration : 1 h 30 min
Bit rate : 96.0 kb/s
Channel(s) : 2 channels
Channel positions : Front: L R
Sampling rate : 48.0 kHz
Frame rate : 46.875 FPS (1024 SPF)
Compression mode : Lossy
Delay relative to video : -12 ms
Stream size : 62.3 MiB (12%)
Title : GOPISAHI
Language : English

Text
Language : English






 

Related Torrents




Recent Searches

Home - Browse Torrents - Upload Torrent - Recent Torrents - Login - Register - FAQ
BitCoin:coming soon
Can't load LimeTorrents
2006-2018 Limetorrents