LimeTorrent

Login   |   Register   |   Home
Loading...
Browse Torrents
| Search Cloud | | | FAQ  
» » Halloween 2018 1080p BluRay x264 DTS 5 1 MSubS - Hon3yHD

Download Halloween 2018 1080p BluRay x264 DTS 5 1 MSubS - Hon3yHD limetorrent


Download torrent: Download Magnet Halloween 2018 1080p BluRay x264 DTS 5 1 MSubS - Hon3yHD
Info hash 80C6F48350DDAA450B22CF02B6CE5742D367003B
Torrent ID13997839
Comments: Sort Read Comments
Category: Movies
Health:
 Seeders: 1 |  Leechers: 8 |  Completed: 48
Torrent language: English English
Total Size: 4.4 GB
Uploader: Hon3yHD Trusted Uploader Site Friend Superman Sun
Torrent added: 05-02-2019, 19:55:04
Views: 133


Extratorrent Download Torrent





Halloween 2018 1080p BluRay x264 DTS 5.1 MSubS - Hon3yHD

Source : BD50 @ Scene

Format : Matroska
Format version : Version 4 / Version 2
File size : 4.37 GiB
Duration : 1 h 45 min
Overall bit rate : 5 918 kb/s
Movie name : Halloween 2018- Hon3yHD
Encoded date : UTC 2019-02-02 16:59:00
Writing application : mkvmerge v30.1.0 ('Forever And More') 64-bit
Writing library : libebml v1.3.6 + libmatroska v1.4.9

Video
ID : 1
Format : AVC
Format/Info : Advanced Video Codec
Format profile : [email protected]
Format settings, CABAC : Yes
Format settings, ReFrames : 5 frames
Codec ID : V_MPEG4/ISO/AVC
Duration : 1 h 45 min
Bit rate : 4 956 kb/s
Width : 1 920 pixels
Height : 800 pixels
Display aspect ratio : 2.40:1
Frame rate mode : Constant
Frame rate : 23.976 (24000/1001) FPS
Language : English
Default : Yes
Forced : No
Color range : Limited
Color primaries : BT.709
Transfer characteristics : BT.709
Matrix coefficients : BT.709

Audio #1
ID : 2
Format : DTS
Format/Info : Digital Theater Systems
Mode : 16
Format settings, Endianness : Big
Codec ID : A_DTS
Duration : 1 h 45 min
Bit rate mode : Constant
Bit rate : 768 kb/s
Channel(s) : 6 channels
Channel positions : Front: L C R, Side: L R, LFE
Sampling rate : 48.0 kHz
Frame rate : 93.750 FPS (512 spf)
Bit depth : 24 bits
Compression mode : Lossy
Stream size : 581 MiB (13%)
Language : English
Default : Yes
Forced : No

Audio #2
ID : 3
Format : AC-3
Format/Info : Audio Coding 3
Format profile : Dolby Digital
Mode extension : CM (complete main)
Format settings, Endianness : Big
Codec ID : A_AC3
Duration : 1 h 45 min
Bit rate mode : Constant
Bit rate : 192 kb/s
Channel(s) : 2 channels
Channel positions : Front: L R
Sampling rate : 48.0 kHz
Frame rate : 31.250 FPS (1536 spf)
Bit depth : 16 bits
Compression mode : Lossy
Stream size : 145 MiB (3%)
Title : Commentary
Language : English
Default : No
Forced : No

Text #1
ID : 4
Format : UTF-8
Codec ID : S_TEXT/UTF8
Codec ID/Info : UTF-8 Plain Text
Duration : 1 h 44 min
Bit rate : 61 b/s
Count of elements : 1532
Stream size : 46.8 KiB (0%)
Language : English
Default : Yes
Forced : No

Text #2
ID : 5
Format : UTF-8
Codec ID : S_TEXT/UTF8
Codec ID/Info : UTF-8 Plain Text
Duration : 1 h 44 min
Bit rate : 47 b/s
Count of elements : 1153
Stream size : 36.5 KiB (0%)
Language : Spanish
Default : No
Forced : No

Text #3
ID : 6
Format : UTF-8
Codec ID : S_TEXT/UTF8
Codec ID/Info : UTF-8 Plain Text
Duration : 1 h 44 min
Bit rate : 49 b/s
Count of elements : 1166
Stream size : 37.6 KiB (0%)
Language : French
Default : No
Forced : No

Text #4
ID : 7
Format : UTF-8
Codec ID : S_TEXT/UTF8
Codec ID/Info : UTF-8 Plain Text
Duration : 1 h 12 min
Bit rate : 0 b/s
Count of elements : 5
Stream size : 171 Bytes (0%)
Language : Spanish
Default : No
Forced : No

Text #5
ID : 8
Format : UTF-8
Codec ID : S_TEXT/UTF8
Codec ID/Info : UTF-8 Plain Text
Duration : 1 h 12 min
Bit rate : 0 b/s
Count of elements : 4
Stream size : 122 Bytes (0%)
Language : French
Default : No
Forced : No

Menu
00:00:00.000 : :Chapter 01
00:08:42.522 : :Chapter 02
00:14:26.949 : :Chapter 03
00:20:46.996 : :Chapter 04
00:23:17.855 : :Chapter 05
00:27:45.080 : :Chapter 06
00:32:55.724 : :Chapter 07
00:40:51.366 : :Chapter 08
00:44:41.053 : :Chapter 09
00:48:26.403 : :Chapter 10
00:53:26.453 : :Chapter 11
00:59:18.597 : :Chapter 12
01:03:22.340 : :Chapter 13
01:07:29.629 : :Chapter 14
01:14:46.524 : :Chapter 15
01:18:10.561 : :Chapter 16
01:22:04.837 : :Chapter 17
01:30:09.904 : :Chapter 18
01:35:33.394 : :Chapter 19
01:40:41.494 : :Chapter 20

[/align]





 

Related Torrents




Recent Searches

Home - Browse Torrents - Upload Torrent - Recent Torrents - Login - Register - FAQ
BitCoin:coming soon
Can't load LimeTorrents
2006-2018 Limetorrents