Loading...

Men in Black Trilogy (1997-2012) 20th Anniversary Edition 1080p 10bit Bluray x265 HEVC [Org DD 2 0 / 5 1 Hindi + DD 5 1 English] MSubs ~ TombDoc

Seeders: 1
Leechers: 2
Completed: 72

Age: 1 month    Visits: 62    Category: Movies    Size: 8.3 GB

Posted by: McuDudeS    Comments: Read Comments

Info Hash: 6E0A4298C4087678C5DFAAB2DA75CE9BFB27EE85



Torrent Description






We Got A World To Save...





Men in Black Trilogy (1997-2012) 20th Anniversary Edition 1080p 10bit Bluray x265 HEVC [Org DD 2.0 / 5.1 Hindi + DD 5.1 English] MSubs ~ TombDoc








Men in Black (1997) REMASTERED 1080p 10bit Bluray x265 HEVC [Org DD 2.0 Hindi + DD 5.1 English] MSubs ~ TombDoc


Org Untouched DD+ 2.0 224Kbps Hindi Audio By Punisher {Thanks}



Code:

Format                                   : Matroska
Format version                           : Version 4
File size                                : 2.51 GiB
Duration                                 : 1 h 37 min
Overall bit rate                         : 3 667 kb/s
Movie name                               :

Video
ID                                       : 1
Format                                   : HEVC
Format/Info                              : High Efficiency Video Coding
Format profile                           : Main [email protected]@Main
Codec ID                                 : V_MPEGH/ISO/HEVC
Duration                                 : 1 h 37 min
Bit rate                                 : 3 000 kb/s
Width                                    : 1 920 pixels
Height                                   : 1 024 pixels
Display aspect ratio                     : 1.85:1
Frame rate mode                          : Constant
Frame rate                               : 23.976 (24000/1001) FPS
Color space                              : YUV
Chroma subsampling                       : 4:2:0
Bit depth                                : 10 bits
Bits/(Pixel*Frame)                       : 0.064
Stream size                              : 2.05 GiB (82%)
Default                                  : Yes
Forced                                   : No
Color range                              : Limited
Color primaries                          : BT.709
Transfer characteristics                 : BT.709
Matrix coefficients                      : BT.709

Audio #1
ID                                       : 2
Format                                   : E-AC-3
Format/Info                              : Enhanced AC-3
Commercial name                          : Dolby Digital Plus
Codec ID                                 : A_EAC3
Duration                                 : 1 h 37 min
Bit rate mode                            : Constant
Bit rate                                 : 224 kb/s
Channel(s)                               : 2 channels
Channel layout                           : L R
Sampling rate                            : 48.0 kHz
Frame rate                               : 31.250 FPS (1536 SPF)
Compression mode                         : Lossy
Stream size                              : 157 MiB (6%)
Language                                 : Hindi
Service kind                             : Complete Main
Default                                  : Yes
Forced                                   : Yes

Audio #2
ID                                       : 3
Format                                   : AC-3
Format/Info                              : Audio Coding 3
Commercial name                          : Dolby Digital
Codec ID                                 : A_AC3
Duration                                 : 1 h 37 min
Bit rate mode                            : Constant
Bit rate                                 : 384 kb/s
Channel(s)                               : 6 channels
Channel layout                           : L R C LFE Ls Rs
Sampling rate                            : 48.0 kHz
Frame rate                               : 31.250 FPS (1536 SPF)
Bit depth                                : 16 bits
Compression mode                         : Lossy
Stream size                              : 269 MiB (10%)
Language                                 : English
Service kind                             : Complete Main
Default                                  : No
Forced                                   : No

Text #1
ID                                       : 4
Format                                   : PGS
Muxing mode                              : zlib
Codec ID                                 : S_HDMV/PGS
Codec ID/Info                            : Picture based subtitle format used on BDs/HD-DVDs
Duration                                 : 1 h 27 min
Bit rate                                 : 27.3 kb/s
Count of elements                        : 2254
Stream size                              : 17.0 MiB (1%)
Title                                    : Hindi BD-PGS
Language                                 : Hindi
Default                                  : Yes
Forced                                   : Yes

Text #2
ID                                       : 5
Format                                   : PGS
Muxing mode                              : zlib
Codec ID                                 : S_HDMV/PGS
Codec ID/Info                            : Picture based subtitle format used on BDs/HD-DVDs
Duration                                 : 1 h 27 min
Bit rate                                 : 35.9 kb/s
Count of elements                        : 2066
Stream size                              : 22.4 MiB (1%)
Title                                    : Eng BD-PGS
Language                                 : English
Default                                  : No
Forced                                   : Yes

Text #3
ID                                       : 6
Format                                   : PGS
Muxing mode                              : zlib
Codec ID                                 : S_HDMV/PGS
Codec ID/Info                            : Picture based subtitle format used on BDs/HD-DVDs
Duration                                 : 1 h 35 min
Bit rate                                 : 26.7 kb/s
Count of elements                        : 2552
Stream size                              : 18.2 MiB (1%)
Title                                    : Eng BD-PGS-SDH
Language                                 : English
Default                                  : No
Forced                                   : Yes

Text #4
ID                                       : 7
Format                                   : PGS
Muxing mode                              : zlib
Codec ID                                 : S_HDMV/PGS
Codec ID/Info                            : Picture based subtitle format used on BDs/HD-DVDs
Duration                                 : 1 h 37 min
Bit rate                                 : 51.7 kb/s
Count of elements                        : 3254
Stream size                              : 36.1 MiB (1%)
Title                                    : Commentary
Language                                 : English
Default                                  : No
Forced                                   : No

Menu
00:00:00.000                             : :Start
00:09:46.461                             : :Illegal Aliens
00:12:46.808                             : :James Edwards
00:18:12.341                             : :Edgar
00:25:31.530                             : :Kay Takes Over
00:29:14.544                             : :Jeebs
00:37:19.195                             : :Simple Tests
00:43:18.554                             : :Casablanca & Coffee
00:49:58.537                             : :Customs & Gadgets
00:54:29.475                             : :Agent Jay
01:00:51.523                             : :In Grave Danger
01:06:24.689                             : :Mr. & Mrs. Redgick
01:08:55.548                             : :Interviewing Beatrice
01:14:56.909                             : :At the Morgue
01:19:39.149                             : :Little Dude & Big Dude
01:29:49.718                             : :Girl He Left Behind






Men in Black II (2002) 1080p 10bit Bluray x265 HEVC [Org DD 5.1 Hindi + DD 5.1 English] MSubs ~ TombDoc


Org Untouched DD+ 5.1 640Kbps Hindi Audio By Punisher {Thanks}



Code:

Format                                   : Matroska
Format version                           : Version 4
File size                                : 2.55 GiB
Duration                                 : 1 h 28 min
Overall bit rate                         : 4 138 kb/s

Video
ID                                       : 1
Format                                   : HEVC
Format/Info                              : High Efficiency Video Coding
Format profile                           : Main [email protected]@Main
Codec ID                                 : V_MPEGH/ISO/HEVC
Duration                                 : 1 h 28 min
Bit rate                                 : 3 051 kb/s
Width                                    : 1 920 pixels
Height                                   : 1 040 pixels
Display aspect ratio                     : 1.85:1
Frame rate mode                          : Constant
Frame rate                               : 23.976 (24000/1001) FPS
Color space                              : YUV
Chroma subsampling                       : 4:2:0
Bit depth                                : 10 bits
Bits/(Pixel*Frame)                       : 0.064
Stream size                              : 1.88 GiB (74%)
Default                                  : Yes
Forced                                   : No
Color range                              : Limited
Color primaries                          : BT.709
Transfer characteristics                 : BT.709
Matrix coefficients                      : BT.709

Audio #1
ID                                       : 2
Format                                   : E-AC-3
Format/Info                              : Enhanced AC-3
Commercial name                          : Dolby Digital Plus
Codec ID                                 : A_EAC3
Duration                                 : 1 h 28 min
Bit rate mode                            : Constant
Bit rate                                 : 640 kb/s
Channel(s)                               : 6 channels
Channel layout                           : L R C LFE Ls Rs
Sampling rate                            : 48.0 kHz
Frame rate                               : 31.250 FPS (1536 SPF)
Compression mode                         : Lossy
Delay relative to video                  : 1 s 33 ms
Stream size                              : 403 MiB (15%)
Language                                 : Hindi
Service kind                             : Complete Main
Default                                  : Yes
Forced                                   : Yes

Audio #2
ID                                       : 3
Format                                   : AC-3
Format/Info                              : Audio Coding 3
Commercial name                          : Dolby Digital
Codec ID                                 : A_AC3
Duration                                 : 1 h 28 min
Bit rate mode                            : Constant
Bit rate                                 : 384 kb/s
Channel(s)                               : 6 channels
Channel layout                           : L R C LFE Ls Rs
Sampling rate                            : 48.0 kHz
Frame rate                               : 31.250 FPS (1536 SPF)
Bit depth                                : 16 bits
Compression mode                         : Lossy
Stream size                              : 242 MiB (9%)
Language                                 : English
Service kind                             : Complete Main
Default                                  : No
Forced                                   : No

Text #1
ID                                       : 4
Format                                   : PGS
Muxing mode                              : zlib
Codec ID                                 : S_HDMV/PGS
Codec ID/Info                            : Picture based subtitle format used on BDs/HD-DVDs
Duration                                 : 1 h 20 min
Bit rate                                 : 33.1 kb/s
Count of elements                        : 2080
Stream size                              : 19.0 MiB (1%)
Title                                    : Hindi BD-PGS
Language                                 : Hindi
Default                                  : Yes
Forced                                   : Yes

Text #2
ID                                       : 5
Format                                   : PGS
Muxing mode                              : zlib
Codec ID                                 : S_HDMV/PGS
Codec ID/Info                            : Picture based subtitle format used on BDs/HD-DVDs
Duration                                 : 1 h 20 min
Bit rate                                 : 36.6 kb/s
Count of elements                        : 2062
Stream size                              : 20.9 MiB (1%)
Title                                    : Eng BD-PGS
Language                                 : English
Default                                  : No
Forced                                   : No

Text #3
ID                                       : 6
Format                                   : PGS
Muxing mode                              : zlib
Codec ID                                 : S_HDMV/PGS
Codec ID/Info                            : Picture based subtitle format used on BDs/HD-DVDs
Duration                                 : 1 h 24 min
Bit rate                                 : 30.9 kb/s
Count of elements                        : 2793
Stream size                              : 18.6 MiB (1%)
Title                                    : Eng BD-PGS-SDH
Language                                 : English
Default                                  : No
Forced                                   : Yes

Text #4
ID                                       : 7
Format                                   : PGS
Muxing mode                              : zlib
Codec ID                                 : S_HDMV/PGS
Codec ID/Info                            : Picture based subtitle format used on BDs/HD-DVDs
Duration                                 : 1 h 25 min
Bit rate                                 : 51.5 kb/s
Count of elements                        : 2403
Stream size                              : 31.4 MiB (1%)
Title                                    : Commentary
Language                                 : English
Default                                  : No
Forced                                   : No






Men in Black 3 (2012) 1080p 10bit Bluray x265 HEVC [Org DD 5.1 Hindi + DD 5.1 English] MSubs ~ TombDoc


Org Untouched DD+ 5.1 640Kbps Hindi Audio By Punisher {Thanks}



Code:

Format                                   : Matroska
Format version                           : Version 4
File size                                : 3.04 GiB
Duration                                 : 1 h 45 min
Overall bit rate                         : 4 106 kb/s

Video
ID                                       : 1
Format                                   : HEVC
Format/Info                              : High Efficiency Video Coding
Format profile                           : Main [email protected]@Main
Codec ID                                 : V_MPEGH/ISO/HEVC
Duration                                 : 1 h 45 min
Bit rate                                 : 3 049 kb/s
Width                                    : 1 920 pixels
Height                                   : 1 040 pixels
Display aspect ratio                     : 1.85:1
Frame rate mode                          : Constant
Frame rate                               : 23.976 (24000/1001) FPS
Color space                              : YUV
Chroma subsampling                       : 4:2:0
Bit depth                                : 10 bits
Bits/(Pixel*Frame)                       : 0.064
Stream size                              : 2.25 GiB (74%)
Default                                  : Yes
Forced                                   : No
Color range                              : Limited
Color primaries                          : BT.709
Transfer characteristics                 : BT.709
Matrix coefficients                      : BT.709

Audio #1
ID                                       : 2
Format                                   : E-AC-3
Format/Info                              : Enhanced AC-3
Commercial name                          : Dolby Digital Plus
Codec ID                                 : A_EAC3
Duration                                 : 1 h 45 min
Bit rate mode                            : Constant
Bit rate                                 : 640 kb/s
Channel(s)                               : 6 channels
Channel layout                           : L R C LFE Ls Rs
Sampling rate                            : 48.0 kHz
Frame rate                               : 31.250 FPS (1536 SPF)
Compression mode                         : Lossy
Delay relative to video                  : 1 s 27 ms
Stream size                              : 484 MiB (16%)
Language                                 : Hindi
Service kind                             : Complete Main
Default                                  : Yes
Forced                                   : Yes

Audio #2
ID                                       : 3
Format                                   : AC-3
Format/Info                              : Audio Coding 3
Commercial name                          : Dolby Digital
Codec ID                                 : A_AC3
Duration                                 : 1 h 45 min
Bit rate mode                            : Constant
Bit rate                                 : 384 kb/s
Channel(s)                               : 6 channels
Channel layout                           : L R C LFE Ls Rs
Sampling rate                            : 48.0 kHz
Frame rate                               : 31.250 FPS (1536 SPF)
Bit depth                                : 16 bits
Compression mode                         : Lossy
Stream size                              : 291 MiB (9%)
Language                                 : English
Service kind                             : Complete Main
Default                                  : No
Forced                                   : No

Text #1
ID                                       : 4
Format                                   : PGS
Muxing mode                              : zlib
Codec ID                                 : S_HDMV/PGS
Codec ID/Info                            : Picture based subtitle format used on BDs/HD-DVDs
Duration                                 : 1 h 37 min
Bit rate                                 : 35.7 kb/s
Count of elements                        : 2938
Stream size                              : 24.9 MiB (1%)
Title                                    : Hindi BD-PGS
Language                                 : Hindi
Default                                  : Yes
Forced                                   : Yes

Text #2
ID                                       : 5
Format                                   : PGS
Muxing mode                              : zlib
Codec ID                                 : S_HDMV/PGS
Codec ID/Info                            : Picture based subtitle format used on BDs/HD-DVDs
Duration                                 : 1 h 37 min
Bit rate                                 : 37.3 kb/s
Count of elements                        : 2896
Stream size                              : 25.9 MiB (1%)
Title                                    : Eng BD-PGS
Language                                 : English
Default                                  : No
Forced                                   : No



Quote:

Source:

Men.in.Black.1997.REMASTERED.1080p.BluRay.AVC.TrueHD.5.1-FGT
Men.in.Black.II.2002.1080p.CEE.BluRay.AVC.DTS-HD.MA.5.1-FGT
Men.in.Black.3.2012.1080p.CEE.BluRay.AVC.DTS-HD.MA.5.1-FGT







Recently Added Torrents in Movies

Trackers List

tracker name
udp://tracker.opentrackr.org:1337/announce
udp://tracker.leechers-paradise.org:6969/announce
udp://tracker.pirateparty.gr:6969/announce
udp://tracker.coppersurfer.tk:6969/announce
udp://tracker.mg64.net:2710/announce
udp://tracker.zer0day.to:1337/announce

Sharing Widget


Download torrent
8.3 GB
Seeders: 1
Leechers: 2
Men in Black Trilogy (1997-2012) 20th Anniversary Edition 1080p 10bit Bluray x265 HEVC [Org DD 2 0 / 5 1 Hindi + DD 5 1 English] MSubs ~ TombDoc